viernes, 9 de agosto de 2013

El Paraiso de Hafner

Ficha técnica:

Título original: Hafner's Paradise
Nacionalidad: Austria
Género: Historia
Director: Günter Schwaiger
Productora: Coproducción Austria-España
Año: 2007

Calificación moral: Todos los públicos

Argumento:
Paul Hafner es un hombre de ochenta y cuatro años que lleva más de cincuenta viviendo en España. Pero la imagen de este anciano inofensivo y dócil que, como tantos otros alemanes, parece haber encontrado un paraíso en España, no tarda en desintegrarse. Al igual que otros representantes del partido Nacionalsocialista, el ex oficial de las SS encontró refugio en la España de Franco. En él no se aprecia consciencia ni mucho menos remordimiento alguno por los males del pasado. Sigue alzando el brazo con orgullo para hacer el saludo nazi y niega la existencia del Holocausto..


Datos del ripeo (Aprox):

- Tamaño: 695 Megas
- Duración: 1h,12m
- Resolución: 720 x 542
- Codecs: xvid- AC3


Capturas:


Datos Del video:
General
Complete name                    : El Paraíso de Hafner.avi
Format                           : AVI
Format/Info                      : Audio Video Interleave
File size                        : 696 MiB
Duration                         : 1h 12mn
Overall bit rate                 : 1 339 Kbps
Movie name                       : El Paraíso de Hafner
Director                         : lajara
Writing application              : Lavf52.33.0
Original source form/Name        : HAFNER_PARADISE

Video
ID                               : 0
Format                           : MPEG-4 Visual
Format profile                   : Simple@L3
Format settings, BVOP            : No
Format settings, QPel            : No
Format settings, GMC             : No warppoints
Format settings, Matrix          : Default (H.263)
Codec ID                         : XVID
Codec ID/Hint                    : XviD
Duration                         : 1h 12mn
Bit rate                         : 880 Kbps
Width                            : 720 pixels
Height                           : 542 pixels
Display aspect ratio             : 4:3
Frame rate                       : 25.000 fps
Color space                      : YUV
Chroma subsampling               : 4:2:0
Bit depth                        : 8 bits
Scan type                        : Progressive
Bits/(Pixel*Frame)               : 0.090
Stream size                      : 457 MiB (66%)
Writing library                  : XviD 1.2.1 (UTC 2008-12-04)

Audio
ID                               : 1
Format                           : AC-3
Format/Info                      : Audio Coding 3
Mode extension                   : CM (complete main)
Codec ID                         : 2000
Duration                         : 1h 12mn
Bit rate mode                    : Constant
Bit rate                         : 448 Kbps
Channel(s)                       : 2 channels
Channel positions                : Front: L R
Sampling rate                    : 48.0 KHz
Bit depth                        : 16 bits
Stream size                      : 233 MiB (33%)
Alignment                        : Aligned on interleaves
Interleave, duration             : 32 ms (0.80 video frame)
Interleave, preload duration     : 32 ms

Link de Descarga:

No hay comentarios:

Publicar un comentario