jueves, 5 de septiembre de 2013

Juri Lina-In The Shadows Of Hermes-Documental


Jüri Lina  nació en 1949 durante la ocupación de Estonia y vive en Suecia.. . Es un investigador y periodista. Él fue expulsado como  periodística en  tiempos de la URS en 1975 y luego trabajó como vigilante nocturno, hasta que se vio obligado a emigrar en 1979.  Después de repetidos conflictos con la policía política y la KGB.
En 1985 fue acusado de  acusado de alta traición por  la publicación de dos libros - "Sovjet hotar Sverige" ("La URSS amenaza Suecia") y "Öised päevad" ("Days nocturnas"). La KGB en tiempos de la URSS lo consideraba como uno de los escritores más anti-comunistas en Suecia
Los Libros de Jüri Lina. Muestra  otra realidad de este mundo que habitamos. Los políticos y los medios de comunicación dicen que NO existe un patrón o una conexión oculta . Ellos   ridiculizan como una “teoría de la conspiración”, la cual NO encaja con la visión oficial del mundo.
 Pero la realidad es que : Las Elites se comunican entre si a partir de claves , simbolos , eclipses.numeros.  Si Tienes esa clave ante tus ojos podras ver mas claro el Panorama.
. El libro de Juri Lina habla de esa red oculta detrás de los eventos pasados y presentes. Este sistema político de servidumbre ha sido construido por fuerzas trabajando tras bastidores – todo un engaño que lo abarca todo desde los Caballeros Templarios, los Illuminati hasta los Masones actuales, resulta claramente evidente en nuestras vidas presentes.
Juri Lina ha recolectado información y documentos interesantes de muchas fuentes para crear un registro de actividades devastadoras , fraudulentas , de eutanasia perpetradas por las sociedades secretas.
  No solo se habla de las Conexiones entre las organizaciones ocultas ademas  muestra cómo estas afectaron la historia con la ayuda de marionetas como Napoleón, Lenin, Trotsky, Hitler, Mao Zedong, Roosevelt y Truman (todos ellos masones de alto rango). Él examina los ritos mágicos de la masonería y da seguimiento a sus orígenes. Al lector se le presenta las razones verdaderas detrás de las guerras y revoluciones más importantes, desde la revolución francesa en 1789 hasta la guerra del golfo pérsico en 1990 y el bombardeo de Serbia en 1999.
Finalmente el autor revela cómo estas fuerzas  se manifiestan ellos mismos en la actualidad y qué planes tienen para el futuro de la humanidad. Este libro expone mucho de los mitos peligrosos e ilustra una imagen distinta del mundo.


General

Format                           : MPEG-4
Format profile                   : Base Media / Version 2
Codec ID                         : mp42
File size                        : 391 MiB
Duration                         : 1h 59mn
Overall bit rate                 : 458 Kbps
Encoded date                     : UTC 2012-04-17 13:28:44
Tagged date                      : UTC 2012-04-17 13:28:44
gsst                             : 0
gstd                             : 7165653
gssd                             : BB50F6008HM1377545464399530
gshh                             : r5---sn-uxaxjvh5gbxoupo5-x1xe.c.youtube.com

Video
ID                               : 1
Format                           : AVC
Format/Info                      : Advanced Video Codec
Format profile                   : Baseline@L2.1
Format settings, CABAC           : No
Format settings, ReFrames        : 1 frame
Codec ID                         : avc1
Codec ID/Info                    : Advanced Video Coding
Duration                         : 1h 59mn
Bit rate mode                    : Variable
Bit rate                         : 359 Kbps
Maximum bit rate                 : 1 490 Kbps
Width                            : 480 pixels
Height                           : 360 pixels
Display aspect ratio             : 4:3
Frame rate mode                  : Constant
Frame rate                       : 25.000 fps
Color space                      : YUV
Chroma subsampling               : 4:2:0
Bit depth                        : 8 bits
Scan type                        : Progressive
Bits/(Pixel*Frame)               : 0.083
Stream size                      : 307 MiB (78%)
Tagged date                      : UTC 2012-04-17 13:28:48

Audio
ID                               : 2
Format                           : AAC
Format/Info                      : Advanced Audio Codec
Format version                   : Version 4
Format profile                   : LC
Codec ID                         : 40
Duration                         : 1h 59mn
Bit rate mode                    : Variable
Bit rate                         : 96.0 Kbps
Maximum bit rate                 : 170 Kbps
Channel(s)                       : 2 channels
Channel positions                : Front: L R
Sampling rate                    : 44.1 KHz
Stream size                      : 82.0 MiB (21%)
Title                            : IsoMedia File Produced by Google, 5-11-2011
Encoded date                     : UTC 2012-04-17 13:28:46
Tagged date                      : UTC 2012-04-17 13:28:48

No hay comentarios:

Publicar un comentario