jueves, 5 de septiembre de 2013

Shlomo Sand-La Invencion De La Tierra De Israel



Shlomo Sand, biografia en wikipedia====>Biografia

En esta conferencia, el historiador israelí Shlomo Sand expone la esencia de su nuevo libro, La invención de la tierra de Israel, y debate con el público presente las ideas por él desarrolladas en esta obra y en su libro anterior (La invención del pueblo judío).

Con su usual contundencia, Shlomo Sand deconstruye por completo la mitología erigida por los sionistas a través de la manipulación de citaciones bíblicas. El propósito de tal manipulación es intentar justificar con argumentos religiosos la ocupación de Palestina y la expulsión de gran parte de los habitantes autóctonos para, en su lugar, asentar los contingentes de personas de ascendencia judía (mayormente oriundos de Europa Oriental) que el sionismo logró llevar para allí.

En el debate con la audiencia, Shlomo Sand revela que, aunque considera que la propuesta de un solo Estado para la región sea moralmente superior, por razones de viabilidad práctica, él se muestra favorable a la creación de dos estados: uno israelí y otro palestino. Sin embargo, diferentemente de lo que anda defendiendo últimamente Norman Finkelstein, Sand se muestra terminantemente contrario a que Israel sea un Estado judío, o que Palestina venga a ser también un Estado racial o religioso. Él defiende la existencia de Israel como un Estado de todos sus ciudadanos, con derechos y deberes iguales para todos, cualquiera sea su religión o ascendencia étnica. Lo mismo para Palestina.

La alternativa de dos estados (en la concepción que Shlomo los vislumbra) debe ser asumida porque es, según él, la única que puede conseguir el consenso necesario para su concreción. Según él, la actual sociedad israelí es la más racista de todo el mundo occidental y, por lo tanto, jamás aceptaría pasar a la condición de minoría en un Estado que fue originalmente creado exactamente con el objetivo de garantizarle su hegemonía.


General

Format                           : MPEG-4
Format profile                   : Base Media / Version 2
Codec ID                         : mp42
File size                        : 206 MiB
Duration                         : 1h 24mn
Overall bit rate                 : 340 Kbps
Encoded date                     : UTC 2013-04-03 02:54:50
Tagged date                      : UTC 2013-04-03 02:54:50
gsst                             : 0
gstd                             : 5080896
gssd                             : BB50F6008HH1365372300159792
gshh                             : r5---sn-uxaxjvh5gbxoupo5-x1xe.c.youtube.com

Video
ID                               : 1
Format                           : AVC
Format/Info                      : Advanced Video Codec
Format profile                   : Baseline@L2.1
Format settings, CABAC           : No
Format settings, ReFrames        : 1 frame
Codec ID                         : avc1
Codec ID/Info                    : Advanced Video Coding
Duration                         : 1h 24mn
Bit rate mode                    : Variable
Bit rate                         : 265 Kbps
Maximum bit rate                 : 565 Kbps
Width                            : 440 pixels
Height                           : 276 pixels
Display aspect ratio             : 1.594
Frame rate mode                  : Constant
Frame rate                       : 30.000 fps
Color space                      : YUV
Chroma subsampling               : 4:2:0
Bit depth                        : 8 bits
Scan type                        : Progressive
Bits/(Pixel*Frame)               : 0.073
Stream size                      : 160 MiB (78%)
Tagged date                      : UTC 2013-04-03 02:56:40

Audio
ID                               : 2
Format                           : AAC
Format/Info                      : Advanced Audio Codec
Format version                   : Version 4
Format profile                   : LC
Format settings, PS              : Yes
Codec ID                         : 40
Duration                         : 1h 24mn
Bit rate mode                    : Variable
Bit rate                         : 72.0 Kbps
Maximum bit rate                 : 76.5 Kbps
Channel(s)                       : 2 channels
Channel positions                : Front: L R
Sampling rate                    : 44.1 KHz
Stream size                      : 43.6 MiB (21%)
Title                            : IsoMedia File Produced by Google, 5-11-2011
Encoded date                     : UTC 2013-04-03 02:55:49
Tagged date                      : UTC 2013-04-03 02:56:40

Descargar Desde MEGA

No hay comentarios:

Publicar un comentario