viernes, 4 de octubre de 2013

David Duke-David Duke-Black Panthers, Obama Y los Derechos Civiles Blancos- HD 720 Subtitulado




Format                           : MPEG-4
Format profile                   : Base Media / Version 2
Codec ID                         : mp42
File size                        : 159 MiB
Duration                         : 10mn 9s
Overall bit rate                 : 2 184 Kbps
Encoded date                     : UTC 2010-07-26 17:24:03
Tagged date                      : UTC 2010-07-26 17:24:03
Xtra                             : WM/MediaClassPrimaryID

Video
ID                               : 2
Format                           : AVC
Format/Info                      : Advanced Video Codec
Format profile                   : Main@L3.1
Format settings, CABAC           : Yes
Format settings, ReFrames        : 5 frames
Codec ID                         : avc1
Codec ID/Info                    : Advanced Video Coding
Duration                         : 10mn 9s
Bit rate mode                    : Variable
Bit rate                         : 1 988 Kbps
Width                            : 1 280 pixels
Height                           : 720 pixels
Display aspect ratio             : 16:9
Frame rate mode                  : Constant
Frame rate                       : 29.970 fps
Standard                         : NTSC
Color space                      : YUV
Chroma subsampling               : 4:2:0
Bit depth                        : 8 bits
Scan type                        : Progressive
Bits/(Pixel*Frame)               : 0.072
Stream size                      : 144 MiB (91%)
Language                         : English
Encoded date                     : UTC 2010-07-26 17:24:03
Tagged date                      : UTC 2010-07-26 17:24:03

Audio
ID                               : 1
Format                           : AAC
Format/Info                      : Advanced Audio Codec
Format version                   : Version 4
Format profile                   : LC
Codec ID                         : 40
Duration                         : 10mn 9s
Bit rate mode                    : Constant
Bit rate                         : 192 Kbps
Channel(s)                       : 2 channels
Channel positions                : Front: L R
Sampling rate                    : 44.1 KHz
Stream size                      : 13.9 MiB (9%)
Language                         : English
Encoded date                     : UTC 2010-07-26 17:24:03
Tagged date                      : UTC 2010-07-26 17:24:03

No hay comentarios:

Publicar un comentario